trouble with 706

Post Reply
harlock
Posts: 32
Joined: 14 Jun 2020, 22:56

trouble with 706

Post by harlock » 12 Jan 2024, 05:16

Hi i found out a problem while playback video files with the multimedia player on the 706
if i use the fast forward or rewind buttons on the remote the playback just freeze it does that with many files i tried but if i use the left and right arrows buttons to browse on the video playback then it doesnt cause that issue. it doesnt do that on every files i tried but many am i the only one having that issue ?

ftor
Posts: 997
Joined: 12 May 2020, 09:22

Re: trouble with 706

Post by ftor » 12 Jan 2024, 11:51

hello,
what is current firmware version? what is video format of yours files?

harlock
Posts: 32
Joined: 14 Jun 2020, 22:56

Re: trouble with 706

Post by harlock » 13 Jan 2024, 04:01

Beta 5.1.28
video freeze on some MKV file not all but some

here's the info of some of a failing file if you want to manage to reproduice the issue

Format : Matroska
Format version : Version 4
File size : 302 MiB
Duration : 21 min 2 s
Overall bit rate : 2 005 kb/s
Frame rate : 25.000 FPS
Encoded date : 2018-08-01 20:18:06 UTC
Writing application : mkvmerge v8.3.0 ('Over the Horizon') 64bit
Writing library : libebml v1.3.1 + libmatroska v1.4.2

Video
ID : 1
Format : HEVC
Format/Info : High Efficiency Video Coding
Format profile : Main 10@L4@Main
Codec ID : V_MPEGH/ISO/HEVC
Duration : 21 min 2 s
Bit rate : 1 043 kb/s
Width : 1 920 pixels
Height : 1 080 pixels
Display aspect ratio : 16:9
Frame rate mode : Constant
Frame rate : 25.000 FPS
Color space : YUV
Chroma subsampling : 4:2:0
Bit depth : 10 bits
Bits/(Pixel*Frame) : 0.020
Stream size : 157 MiB (52%)
Writing library : x265 1.9+3-63308f7658c3:[Windows][GCC 5.2.0][64 bit] 10bit
Encoding settings : wpp / ctu=64 / min-cu-size=8 / max-tu-size=32 / tu-intra-depth=1 / tu-inter-depth=1 / me=1 / subme=2 / merange=57 / no-rect / no-amp / max-merge=2 / temporal-mvp / no-early-skip / rdpenalty=0 / no-tskip / no-tskip-fast / strong-intra-smoothing / no-lossless / no-cu-lossless / no-constrained-intra / no-fast-intra / open-gop / no-temporal-layers / interlace=0 / keyint=250 / min-keyint=25 / scenecut=40 / rc-lookahead=20 / lookahead-slices=6 / bframes=4 / bframe-bias=0 / b-adapt=2 / ref=3 / limit-refs=3 / no-limit-modes / weightp / no-weightb / aq-mode=1 / qg-size=32 / aq-strength=0.30 / cbqpoffs=0 / crqpoffs=0 / rd=3 / psy-rd=0.50 / rdoq-level=2 / psy-rdoq=10.00 / signhide / deblock=-2:-2 / sao / no-sao-non-deblock / b-pyramid / cutree / no-intra-refresh / rc=2 / pass / bitrate=1042 / qcomp=0.80 / qpmin=0 / qpmax=51 / qpstep=4 / cplxblur=20.0 / qblur=0.5 / ipratio=1.10 / pbratio=1.10
Language : English
Default : Yes
Forced : No
Color range : Limited
Color primaries : BT.709
Transfer characteristics : BT.709
Matrix coefficients : BT.709

Audio #1
ID : 2
Format : AC-3
Format/Info : Audio Coding 3
Commercial name : Dolby Digital
Codec ID : A_AC3
Duration : 21 min 2 s
Bit rate mode : Constant
Bit rate : 192 kb/s
Channel(s) : 2 channels
Channel layout : L R
Sampling rate : 48.0 kHz
Frame rate : 31.250 FPS (1536 SPF)
Compression mode : Lossy
Delay relative to video : -105 ms
Stream size : 28.9 MiB (10%)
Language : French
Service kind : Complete Main
Default : Yes
Forced : No

Audio #2
ID : 3
Format : DTS
Format/Info : Digital Theater Systems
Codec ID : A_DTS
Duration : 21 min 2 s
Bit rate mode : Constant
Bit rate : 768 kb/s
Channel(s) : 2 channels
Channel layout : Lt Rt
Sampling rate : 48.0 kHz
Frame rate : 93.750 FPS (512 SPF)
Bit depth : 24 bits
Compression mode : Lossy
Delay relative to video : -105 ms
Stream size : 116 MiB (38%)
Language : English
Default : No
Forced : No

Text #1
ID : 4
Format : UTF-8
Codec ID : S_TEXT/UTF8
Codec ID/Info : UTF-8 Plain Text
Duration : 20 min 54 s
Bit rate : 61 b/s
Frame rate : 0.240 FPS
Count of elements : 301
Stream size : 9.48 KiB (0%)
Language : French
Default : No
Forced : No

Text #2
ID : 5
Format : UTF-8
Codec ID : S_TEXT/UTF8
Codec ID/Info : UTF-8 Plain Text
Duration : 20 min 54 s
Bit rate : 74 b/s
Frame rate : 0.239 FPS
Count of elements : 300
Stream size : 11.5 KiB (0%)
Language : English
Default : No
Forced : No

Post Reply